VA - The Greatest Eighties Album (4CD, 2018)
VA - The Greatest Eighties Album (4CD, 2018)
FLAC (tracks+cue+log+scans) / MP3 CBR 320 kbps | 05:16:35 | 727 Mb / 2,5 Gb
Genre: Dance, Disco, Pop, 80s, Rock, RnB / Label: Rhino

The Greatest Eighties Album displays a variety of stylistic content of the material, that is, will be, and perhaps will be, just a discovery. Rhino Records started as a record store in Westwood California, founded by Richard Foos.

Download Now
http://i103.fastpic.ru/big/2018/0328/b6/c063d420b1c59660be8538af467856b6.jpg
V.A. - Blank & Jones Present So80s (So Eighties) Vol. 2 (2010)
EAC Rip | FLAC (tracks+.cue+log) - 1,84 GB | MP3 CBR 320 kbps (LAME 3.93) - 594 MB | Covers - 608 MB
Genre: New Wave, Europop, Synth-pop | RAR 3% Rec. | Label: Soundcolours (SC 0314)


2010 three CD set, the second volume in the So80s series. The finest collection of original classic 12" club & extended mixes.
Download Now
Va - Blank & Jones Present So80s (so Eighties) Vol  9 [3cd] (2015) Cd Rip
Artist: Various Artists
Title: Blank & Jones Present So80s (So Eighties) Vol. 9
Year Of Release: 2015-02-06
Label: Soundcolours (EU)
Genre: Electronic, Pop/Rock, New Wave, Club/Dance, Synth-pop
Quality: FLAC (tracks+.cue+.log)
Total Time: 03:25:09
Total Size: 1,42 Gb (Full Scans~852,44 Mb)



Tracklist:

Disc 1:

01. John Waite - Missing You (Extended Version) (07:02)
02. Fleetwood Mac - Little Lies (Extended Version) (06:16)
03. Gino0.39 dB -11.06 dB 7:26 11-French Kissin' In The USA (Dance Mix)
DR10 -0.39 dB -12.70 dB 6:18 02-Little Lies (Extended Version)
DR11 -0.39 dB -12.48 dB 5:59 10-Precious Little Diamond (Dub)
DR11 -0.39 dB -13.39 dB 6:24 03-Wild Horses (Remix)
DR11 -0.39 dB -12.58 dB 7:05 01-Missing You (Extended Version)
DR10 -0.39 dB -12.38 dB 6:34 05-Radio Africa (Extended Version)
DR11 -0.39 dB -12.40 dB 5:01 09-Our House (Special Remix - Extended Dance Version)
DR11 -0.35 dB -12.51 dB 5:36 06-Paradise (Extended Remix)
DR11 -0.39 dB -12.88 dB 6:15 07-Money's Too Tight (To Mention) (12'' Version)
DR11 -0.39 dB -12.82 dB 5:57 08-Hello Again (Remix Version)
DR10 -0.35 dB -12.18 dB 5:05 04-Closest Thing To Heaven (Full Version)

Number of tracks: 11
Official DR0.39 dB -13.01 dB 4:16 10-Moonlighting (Extended Remix)
DR8 -2.47 dB -12.54 dB 6:02 06-Obsession (Dance Mix)
DR11 -0.39 dB -13.27 dB 6:47 07-All She Wants Is (US Master Dub)
DR10 -0.35 dB -12.38 dB 9:06 03-Big Bubbles, No Troubles (Final Mix)
DR10 -0.39 dB -12.07 dB 7:20 04-Help The Man (Save Ya Mix)
DR11 -0.39 dB -13.38 dB 6:23 09-You Can Leave Your Hat On (Extended Dressed Mix)
DR11 -0.39 dB -13.50 dB 5:06 08-Break My Stride (Remix / Club Version)
DR10 -0.22 dB -12.34 dB 6:07 05-More To Lose (Extended Mix)
DR10 -0.39 dB -11.90 dB 5:05 02-Mercy (Long Version)
DR10 -0.22 dB -11.80 dB 8:08 01-Pictures Of You (Extended Re-Mix)

Number of tracks: 10
Official DR0.22 dB -12.48 dB 7:30 01-Planet Rock (Long Version)
DR10 -0.39 dB -11.90 dB 4:24 05-Rainy Day In London (Full Length Version)
DR12 -0.22 dB -14.04 dB 6:09 07-Dreaming (Extended Dance Mix)
DR12 -0.39 dB -14.18 dB 6:52 04-Treat The Youths Right (Special Mix)
DR10 -0.39 dB -11.77 dB 5:35 08-Touched By The Hand Of Dub
DR10 -0.23 dB -11.89 dB 8:34 02-19 (The Final Story)
DR11 -0.35 dB -13.13 dB 5:26 09-Invitation (Full Length Version)
DR10 -0.22 dB -11.41 dB 5:43 06-Call Me (Special Viva Mix)
DR10 -0.35 dB -11.78 dB 7:52 03-One Small Day (US Club Mix)
DR11 -0.39 dB -13.43 dB 15:03 10-Live At The Roxy, N.Y. Dec. '83

Rapidgator

http://rapidgator.net/file/e89f98cbe712d45fd61a680b1c0e21b0/1CIDsrla__PISEV9D1F.rar.html
http://rapidgator.net/file/015193cca7e00084588216bed6d226d1/1CIDsrla__PISEV9D2F.rar.html
http://rapidgator.net/file/c4305cd1a9dbf90f07aa81882f2aee3c/1CIDsrla__PISEV9D3F.rar.html
Download Now
http://i101.fastpic.ru/big/2018/0305/3e/e5f21a8fff2533081fae42fd5661733e.jpg
V.A. - Blank & Jones Present So80s (So Eighties) Vol. 9 (2015)
EAC Rip | FLAC (tracks+.cue+log) - 1,38 GB | Covers - 1,18 GB
Genre: New Wave, Europop, Synth-pop | RAR 3% Rec. | Label: Soundcolours (SC 0345)
Download Now
VA - 100 Hits - The Best Eighties Album (2017)
2017 | MP3 320 kbps | 06:57:19 | 952 MB
Genre: Pop | Label: Demon Music Group
Download Now
Life Moves Pretty Fast: The Lessons We Learned from Eighties Movies

Life Moves Pretty Fast: The Lessons We Learned from Eighties Movies by Hadley Freeman
English | 2016 | ISBN: 1501130455, 0606389385 | 352 pages | EPUB | 2 MB
Download Now

VA - Twelve Inch Eighties Rhythm Is Gonna Get You (2016) FLAC




Artist:Various Artists

Title:Twelve Inch Eighties: Rhythm Is Gonna Get You

Year Of Release:2016-06-24

Label:Crimson Productions / Demon Music Group Ltd. (EU)

Genre:Pop, Electronic, Synth-pop, Hi NRG, Euro-Disco

Quality:FLAC (tracks+.cue+.log)

Total Time:03:19:43

Total Size:1,43 Gb (Full Scans)

Download Now

VA - The Eighties Album (3CD, 2016)



Artist: VA
Title: The Eighties Album
Year Of Release: 2016
Label: Warner Music
Genre: New Wave, Alternative, Indie, Ska, Synthpop
Quality: MP3 320 kbps
Total Time: 03:59:17
Total Size: 541 Mb
Download Now
http://s2.1pic.org/files/2016/10/04/7d3ade8f282ee21d0f93.jpg
VA - Simply Eighties (4CD, 2016)
Pop, Disco, Soul, Rock, Synth Pop | unionsquaremusic
320 kbps | MP3 | unmixed | 2016 | 04:32:47 | 624 Mb
Download Now
A Taste Of Honey - Ladies Of The Eighties (19822012)
Artist:A Taste Of Honey
Title:Ladies Of The Eighties
Year Of Release:2012 (1982)
Label:Big Break Records [CDBBR 0087]
Genre:Soul, Funk, Disco
Quality:FLAC (tracks+.cue,log) | 320
Download Now